Login  Password
 Регистрация
 Sign up
 Забыли?
 Forgot?

Миксы Mixes

  • PROANT - Morning Coffee Vol. 59


    Рейтинг +2 Rating
    27.03.2010 | ALX Cerberson

    Get Flash to see this player.
    Download
    время для голосования истекло
    the voting has expired

    Morning Coffee Vol. 59


    Tracklist:
    01. Michael & Levan - Distant Closeness (Alex Rize Remix) [SoundTribe Rekords]
    02. M&D Substance - Cold Sunday (Hypnotic Duo Remix) [CDR]
    03. Yvel & Tristan - Pillow (Original mix) [Heavy Rotation Recordings]
    04. Nick and John Dalagelis - R2 units gone wild [Audio Therapy]
    05. Orchid – When Things Start To Go Wrong [Source Of Gravity Digital]
    06. Parallax Breakz & Almaz – Collation (Phrakture Remix) [Flextone Recordings]
    07. Jaksa Pavicevic – Lisa (Abdomen Burst Organic Chill Mix) [Particles]
     






Комментарии / Comments:

ВКонтакте


Facebook


BBZ
aleks_999 17-04-2010 11:59:57
PERFORMER ""
TITLE "Morning_Coffee_Vol_59_mixed_by_ProAnt"
FILE "Morning_Coffee_Vol_59_mixed_by_ProAnt.mp3" MP3
TRACK 01 AUDIO
PERFORMER "Michael & Levan"
TITLE "Distant Closeness (Alex Rize Remix) [SoundTribe Rekords]"
INDEX 01 00:00:00
TRACK 02 AUDIO
PERFORMER "M&D Substance"
TITLE "Cold Sunday (Hypnotic Duo Remix) [CDR]"
INDEX 01 09:33:02
TRACK 03 AUDIO
PERFORMER "Yvel & Tristan"
TITLE "Pillow (Original mix) [Heavy Rotation Recordings]"
INDEX 01 14:08:72
TRACK 04 AUDIO
PERFORMER "Nick and John Dalagelis"
TITLE "R2 units gone wild [Audio Therapy]"
INDEX 01 20:54:36
TRACK 05 AUDIO
PERFORMER "Orchid"
TITLE "When Things Start To Go Wrong [Source Of Gravity Digital]"
INDEX 01 26:56:61
TRACK 06 AUDIO
PERFORMER "Parallax Breakz & Almaz"
TITLE "Collation (Phrakture Remix) [Flextone Recordings]"
INDEX 01 32:28:32
TRACK 07 AUDIO
PERFORMER "Jaksa Pavicevic"
TITLE "Lisa (Abdomen Burst Organic Chill Mix) [Particles]"
INDEX 01 39:29:52
   
mark 01-04-2010 12:15:50
59й глоток свежего кофе! )
   
натуральная 31-03-2010 11:19:47
прикольнода
   
bbztm 27-03-2010 16:04:39
а де треклист?
   
MipH 27-03-2010 16:11:33
Не все сразу. Сначала послушать...
   
bbztm 27-03-2010 16:57:10
послушал очень даже!)
   

Возможность комментирования выключена! Комментировать могут только зарегистрированные пользователи.


BREAKBEATZONE RADIO STATION


Web | iOS | вКонтакте

Обсудить в: Чате | Форуме | radio@bbz.ru




Лейбл BBZ / BBZ Record Label:

Проекты BBZ / BBZ Projects:


Товары с символикой BBZ.RU: bbz.printdirect.ru

Morning Coffee: only progressive breaks



Социалки / Social networks: